ADOBE PREMIERE PRO: Tutorials Forum Articles Creative Cloud Debate

LPCM 24 bit audio Muxed in .mpg container

COW Forums : Adobe Premiere Pro

<< PREVIOUS   •   FAQ   •   VIEW ALL   •   PRINT   •   NEXT >>
Rolf Alex
LPCM 24 bit audio Muxed in .mpg container
on Dec 8, 2016 at 8:56:21 am

We have a .mpg file with lpcm audio and mpeg video.
The audio just noice in premiere and quicktime 7.
We are missing a decoder i think.Anyone knows what quicktime component to use?

This is what mediainfo tells us about the file.

General
Complete name : /Users/Roffe/Desktop/Top_Gun_01692_001_TRL_OUTPUT_O3149_MPEG_2_50_Mb_1920x1080_25fps_2_0_16x9_Full_Frame_1_78_1_Texted_engAU_engPT_80153645.mpg
Format : MPEG-PS
File size : 545 MiB
Duration : 1mn 25s
Overall bit rate : 53.7 Mbps

Video
ID : 224 (0xE0)
Format : MPEG Video
Format version : Version 2
Format profile : 4:2:2@High
Format settings, BVOP : Yes
Format settings, Matrix : Custom
Duration : 1mn 25s
Bit rate : 51.1 Mbps
Maximum bit rate : 50.0 Mbps
Width : 1 920 pixels
Height : 1 080 pixels
Display aspect ratio : 16:9
Frame rate : 25.000 fps
Color space : YUV
Chroma subsampling : 4:2:2
Bit depth : 8 bits
Scan type : Progressive
Compression mode : Lossy
Bits/(Pixel*Frame) : 0.985
Time code of first frame : 00:59:59:00
Time code source : Group of pictures header
Stream size : 518 MiB (95%)

Audio
ID : 189 (0xBD)-160 (0xA0)
Format : PCM
Format settings, Endianness : Big
Format settings, Sign : Signed
Muxing mode : DVD-Video
Duration : 1mn 25s
Bit rate mode : Constant
Bit rate : 1 536 Kbps
Channel(s) : 2 channels
Sampling rate : 48.0 KHz
Bit depth : 24 bits
Stream size : 15.6 MiB (3%)


Return to posts index

<< PREVIOUS   •   VIEW ALL   •   PRINT   •   NEXT >>
© 2017 CreativeCOW.net All Rights Reserved
[TOP]