MAGIX VEGAS: MAGIX Vegas Tutorials MAGIX Vegas Forum Articles Black Magic Design Forum AJA Xena Forum

GoPro 4k60fps Footage Won't Load

COW Forums : VEGAS Pro

<< PREVIOUS   •   VIEW ALL   •   PRINT   •   NEXT >>
Daniel Johnson
GoPro 4k60fps Footage Won't Load
on Jul 24, 2020 at 9:37:01 am

I am using Vegas Pro 13.0, but when I try to import footage from my GoPro Hero 7 Black, filmed at 4k60fps, I'm told

"Warning: An error occurred while opening one or more files.

The file is most likely corrupted or of an unknown format."

I tried converting my videos with Handbrake, but unfortunately haven't been able to do so without quality loss (and a lot of processing time). Does anyone know how to resolve this? Has this been resolved with later versions of Sony Vegas?


Return to posts index

Francois Pénzes
Re: GoPro 4k60fps Footage Won't Load
on Jul 24, 2020 at 12:13:18 pm

Hi Daniel

Mediainfo on your file would help us help you.

https://mediaarea.net/fr/MediaInfo/Download


Cheers !

PC Win 10 Pro 64-bit 16gb
Ryzen 9 3900X 12 Core 4.60GHz
Radeon RX 5700 XT
Cameras: Canon XF305 + Canon XH-A1 and a bunch of others
Vegas Pro 16, User since Vegas 3.0

''When the cutting stops, the editing begins...''


Return to posts index

Daniel Johnson
Re: GoPro 4k60fps Footage Won't Load
on Jul 24, 2020 at 1:17:21 pm

Not sure which will be most relevant, so I've included just about everything

General
Complete name : E:\Mweni\GoPro Days 1 and 2\GX011902.MP4
Format : MPEG-4
Format profile : Base Media / Version 1
Codec ID : mp41 (mp41)
File size : 331 MiB
Duration : 46 s 46 ms
Overall bit rate : 60.4 Mb/s
Encoded date : UTC 2020-07-14 11:53:37
Tagged date : UTC 2020-07-14 11:53:37

Video
ID : 1
Format : HEVC
Format/Info : High Efficiency Video Coding
Format profile : Main@L5.1@Main
Codec ID : hvc1
Codec ID/Info : High Efficiency Video Coding
Duration : 46 s 29 ms
Bit rate : 60.1 Mb/s
Width : 3 840 pixels
Height : 2 160 pixels
Display aspect ratio : 16:9
Frame rate mode : Constant
Frame rate : 59.940 (60000/1001) FPS
Color space : YUV
Chroma subsampling : 4:2:0
Bit depth : 8 bits
Bits/(Pixel*Frame) : 0.121
Stream size : 330 MiB (100%)
Title : GoPro H.265
Language : English
Encoded date : UTC 2020-07-14 11:53:37
Tagged date : UTC 2020-07-14 11:53:37
Color range : Full
Color primaries : BT.709
Transfer characteristics : BT.709
Matrix coefficients : BT.709
Codec configuration box : hvcC

Audio
ID : 2
Format : AAC LC
Format/Info : Advanced Audio Codec Low Complexity
Codec ID : mp4a-40-2
Duration : 46 s 37 ms
Bit rate mode : Constant
Bit rate : 192 kb/s
Nominal bit rate : 48.0 kb/s
Channel(s) : 2 channels
Channel layout : L R
Sampling rate : 48.0 kHz
Frame rate : 46.875 FPS (1024 SPF)
Compression mode : Lossy
Stream size : 1.04 MiB (0%)
Title : GoPro AAC
Language : English
Encoded date : UTC 2020-07-14 11:53:37
Tagged date : UTC 2020-07-14 11:53:37

Other #1
ID : 3
Type : Time code
Format : QuickTime TC
Duration : 46 s 29 ms
Bit rate mode : Constant
Frame rate : 59.940 (60000/1001) FPS
Time code of first frame : 12:05:00:00
Time code, striped : Yes
Title : GoPro TCD
Language : English
Encoded date : UTC 2020-07-14 11:53:37
Tagged date : UTC 2020-07-14 11:53:37

Other #2
Type : meta
Duration : 46 s 46 ms
Bit rate mode : Variable

Other #3
Type : meta
Bit rate mode : Variable
mdhd_Duration : 46029


Return to posts index


Francois Pénzes
Re: GoPro 4k60fps Footage Won't Load
on Jul 24, 2020 at 1:41:53 pm

Hi Daniel

Your version of Vegas Pro, V13, can't natively open H265 files. Support for H265 started with V14.

Quick and short history on the H265. This type of file was originally meant for broadcasting purposes and is also used in Blue-Ray. If at all possible, try to use another file type that will be recognized and won't make your CPU huff and puff.

Cheers !

PC Win 10 Pro 64-bit 16gb
Ryzen 9 3900X 12 Core 4.60GHz
Radeon RX 5700 XT
Cameras: Canon XF305 + Canon XH-A1 and a bunch of others
Vegas Pro 16, User since Vegas 3.0

''When the cutting stops, the editing begins...''


Return to posts index

Daniel Johnson
Re: GoPro 4k60fps Footage Won't Load
on Jul 24, 2020 at 1:56:39 pm

Thank you very much! I suppose I'll have to upgrade then - probably about time. I'm glad to hear that it works with later versions at least, that's good news.


Return to posts index

<< PREVIOUS   •   VIEW ALL   •   PRINT   •   NEXT >>
© 2020 CreativeCOW.net All Rights Reserved
[TOP]