FORUMS: list search recent posts

FCP Import error

COW Forums : Apple Final Cut Pro Legacy

<< PREVIOUS   •   FAQ   •   VIEW ALL   •   PRINT   •   NEXT >>
Hilary Weeks
FCP Import error
on Nov 7, 2013 at 12:10:19 pm

Hi all

We have an oddity here I was hoping someone may be able to explain to me.

We have an Apple ProRes 422HQ which looks fine in QT player and also in Media Info (see read out for MI below.

When the file is imported into FCP 7 the properties show the file as having a frame size of 1024x576. When we playback the file the image is the anamorphic image padded to the right with green so that it fits a 1024x576 window. A grab of this is available here (I think):




MEDIA INFO:
Format : QuickTime
Format/Info : Original Apple specifications
File size : 23.2 GiB
Duration : 55mn 30s
Overall bit rate mode : Variable
Overall bit rate : 60.0 Mbps
Encoded date : UTC 2012-09-28 18:37:25
Tagged date : UTC 2013-11-07 11:49:39
Writing library : Apple QuickTime 7.6.6
Original source medium : 001
Media/UUID : 0966377C-4FC7-4E3C-B17D-F3FA5756DAF8
com.apple.quicktime.player.movie.audio.m : (Binary)

Video
ID : 8
Format : ProRes
Format version : Version 0
Format profile : High
Codec ID : apch
Duration : 55mn 30s
Bit rate mode : Variable
Bit rate : 55.3 Mbps
Width : 720 pixels
Height : 576 pixels
Display aspect ratio : 16:9
Frame rate mode : Constant
Frame rate : 25.000 fps
Standard : PAL
Color space : YUV
Chroma subsampling : 4:2:2
Scan type : Interlaced
Scan order : Top Field First
Bits/(Pixel*Frame) : 5.336
Stream size : 21.4 GiB (92%)
Writing library : Apple
Language : English
Encoded date : UTC 2013-11-07 11:49:39
Tagged date : UTC 2013-11-07 11:49:39
Color primaries : BT.601 PAL
Matrix coefficients : BT.601

Audio #1
ID : 5
Format : PCM
Format settings, Endianness : Little
Format settings, Sign : Unsigned
Codec ID : in24
Duration : 55mn 30s
Source duration : 55mn 31s
Bit rate mode : Constant
Bit rate : 2 304 Kbps
Channel(s) : 2 channels
Channel positions : Front: L R
Sampling rate : 48.0 KHz
Bit depth : 24 bits
Delay relative to video : -120ms
Stream size : 915 MiB (4%)
Source stream size : 915 MiB (4%)
Language : English
Encoded date : UTC 2012-09-28 19:34:12
Tagged date : UTC 2012-09-28 19:46:35

Audio #2
ID : 6
Format : PCM
Format settings, Endianness : Little
Format settings, Sign : Unsigned
Codec ID : in24
Duration : 55mn 30s
Source duration : 55mn 31s
Bit rate mode : Constant
Bit rate : 2 304 Kbps
Channel(s) : 2 channels
Channel positions : Front: L R
Sampling rate : 48.0 KHz
Bit depth : 24 bits
Delay relative to video : -120ms
Stream size : 915 MiB (4%)
Source stream size : 915 MiB (4%)
Language : English
Encoded date : UTC 2012-09-28 19:34:12
Tagged date : UTC 2012-09-28 19:46:35

Any ideas? Client says it looks fine their end. We are using OSX 10.6 and FCP 7.

Thanks

Hilary


Return to posts index

<< PREVIOUS   •   VIEW ALL   •   PRINT   •   NEXT >>
© 2017 CreativeCOW.net All Rights Reserved
[TOP]