FORUMS: list search recent posts

How to get thinks work fine, different formats/codecs to one

COW Forums : Adobe Media Encoder

<< PREVIOUS   •   VIEW ALL   •   PRINT   •   NEXT >>
Marcin Wirius
How to get thinks work fine, different formats/codecs to one
on Jun 16, 2014 at 6:44:11 pm

Hello everyone,

since 2002 i have made videos with different devices from really bad cheap cameras thru low quality phones that were able to record videos then i shoot some of clips with Panasonic SDR-H40

Keeping it all simple and easy to understand;
I have variety of of clips with different codecs, formats, resolutions, bitrates, and most annoying different fps, from 5.323 fps to 20.17 and so on, sometimes there is no stable fps and it vary by a little in a different moments of a clips.

Since all of those clips had sentimental meaning to me i wanted to make few dvd's, connecting it all into one nicely segregated etc.

case is

when i have tried to convert some of the files into a common one codec and format the quality were sometimes twice worse then before I also had problem with audio video desync i guess fps cause this problem.

Can you please give me guide how should i get this done or maybe its impossible

Programs I have tried
Adobe media encoder
Xilsoft video converter
Avs video converter
and few others

and for example

Format : AVI
Format/Info : Audio Video Interleave
File size : 1.09 MiB
Duration : 28s 349ms
Overall bit rate : 322 Kbps

Video
ID : 0
Format : JPEG
Codec ID : MJPG
Duration : 28s 348ms
Bit rate : 287 Kbps
Width : 320 pixels
Height : 240 pixels
Original height : 480 pixels
Display aspect ratio : 4:3
Frame rate : 5.962 fps
Color space : YUV
Chroma subsampling : 4:2:0
Bit depth : 8 bits
Scan type : Interlaced
Compression mode : Lossy
Bits/(Pixel*Frame) : 0.626
Stream size : 992 KiB (89%)

Audio
ID : 1
Format : ADPCM

-----
Format : AVI
Format/Info : Audio Video Interleave
File size : 451 KiB
Duration : 2s 800ms
Overall bit rate : 1 319 Kbps

Video
ID : 0
Format : JPEG
Codec ID : MJPG
Duration : 2s 800ms
Bit rate : 1 249 Kbps
Width : 320 pixels
Height : 240 pixels
Display aspect ratio : 4:3
Frame rate : 15.000 fps
Color space : YUV
Chroma subsampling : 4:2:2
Bit depth : 8 bits
Scan type : Interlaced
Compression mode : Lossy
Bits/(Pixel*Frame) : 1.084
Stream size : 427 KiB (95%)

Audio
ID : 1
Format : ADPCM
Format profile : U-Law
Codec ID : 7
Codec ID/Hint : CCITT
Duration : 2s 792ms
Source duration : 2s 723ms
Bit rate mode : Constant
Bit rate : 64.0 Kbps
Channel(s) : 1 channel
Sampling rate : 8 000 Hz
Bit depth : 8 bits
Stream size : 21.3 KiB (5%)
Interleave, duration : 68 ms (1.02 video frame)

----
Format : MPEG-4
Format profile : 3GPP Media Release 5
Codec ID : 3gp5
File size : 882 KiB
Duration : 18s 390ms
Overall bit rate mode : Constant
Overall bit rate : 393 Kbps

Video
ID : 1
Format : MPEG-4 Visual
Format profile : Simple@L1
Format settings, BVOP : Yes
Format settings, QPel : No
Format settings, GMC : No warppoints
Format settings, Matrix : Default (H.263)
Codec ID : 20
Duration : 18s 276ms
Bit rate mode : Constant
Bit rate : 328 Kbps
Nominal bit rate : 157 Kbps
Width : 320 pixels
Height : 240 pixels
Display aspect ratio : 4:3
Frame rate mode : Variable
Frame rate : 17.455 fps
Minimum frame rate : 8.772 fps
Maximum frame rate : 17.857 fps
Color space : YUV
Bit depth : 8 bits
Scan type : Progressive
Compression mode : Lossy
Bits/(Pixel*Frame) : 0.245
Stream size : 732 KiB (83%)
Writing library : Corelogic camera
Language : English

Audio
ID : 2
Format : AAC
Format/Info : Advanced Audio Codec
Format profile : LC
Codec ID : 40
Duration : 18s 390ms
Bit rate mode : Constant
Bit rate : 64.0 Kbps
Channel(s) : 1 channel
Channel positions : Front: C
Sampling rate : 11.025 KHz
Compression mode : Lossy
Stream size : 144 KiB (16%)
Language : English

--
Format : MPEG-PS
File size : 66.6 MiB
Duration : 1mn 31s
Overall bit rate mode : Variable
Overall bit rate : 6 127 Kbps

Video
ID : 224 (0xE0)
Format : MPEG Video
Format version : Version 2
Format profile : Main@Main
Format settings, BVOP : Yes
Format settings, Matrix : Custom
Format settings, GOP : M=3, N=12
Duration : 1mn 31s
Bit rate mode : Variable
Bit rate : 5 749 Kbps
Maximum bit rate : 9 510 Kbps
Width : 704 pixels
Height : 576 pixels
Display aspect ratio : 2.35:1
Frame rate : 25.000 fps
Standard : PAL
Color space : YUV
Chroma subsampling : 4:2:0
Bit depth : 8 bits
Scan type : Interlaced
Scan order : Top Field First
Compression mode : Lossy
Bits/(Pixel*Frame) : 0.567
Time code of first frame : 00:00:00:00
Time code source : Group of pictures header
Stream size : 62.4 MiB (94%)
Color primaries : BT.601 PAL
Transfer characteristics : BT.470 System B, BT.470 System G
Matrix coefficients : BT.601

Audio
ID : 189 (0xBD)-128 (0x80)
Format : AC-3
Format/Info : Audio Coding 3
Mode extension : CM (complete main)
Format settings, Endianness : Big
Muxing mode : DVD-Video
Duration : 1mn 31s
Bit rate mode : Constant
Bit rate : 256 Kbps
Channel(s) : 2 channels
Channel positions : Front: L R
Sampling rate : 48.0 KHz
Bit depth : 16 bits
Compression mode : Lossy
Delay relative to video : -80ms
Stream size : 2.78 MiB (4%)



there are many many different there are 3k clips some of them are similar some of them are not.


Return to posts index

<< PREVIOUS   •   VIEW ALL   •   PRINT   •   NEXT >>
© 2017 CreativeCOW.net All Rights Reserved
[TOP]