FORUMS: list search recent posts

Problem encoding Quicktime Mov with Adobe Media Encoder

COW Forums : Adobe Media Encoder

<< PREVIOUS   •   VIEW ALL   •   PRINT   •   NEXT >>
Timo Koljonen
Problem encoding Quicktime Mov with Adobe Media Encoder
on Sep 24, 2011 at 7:11:51 pm

I have a MOV-file which has been exported from Final Cut. I edited it in Premiere CS 5.5 and then tried to export again to Quicktime Mov. Problem is that the output look terrible. There is some kind of "Motion bluriness" or fuzziness in the video and looks like there is a maybe frame rate problem.
Does anyone know what the problem is? I use "real" Quicktime from Apple website.

Here is the information of my Premiere project:

Editing mode: DV PAL
Timebase: 25,00fps

Video Settings
Frame size: 720h 576v (1,4587)
Frame rate: 25,00 frames/second
Pixel Aspect Ratio: D1/DV PAL Widescreen 16:9 (1.4587)
Fields: Lower Field First

***

Here is the information (Mediainfo) of the original MOV:


Format : MPEG-4
Format_Commercial_IfAny : DVCPRO
Format profile : QuickTime
Codec ID : qt
File size : 2.06 GiB
Duration : 9mn 42s
Overall bit rate : 30.3 Mbps
Encoded date : UTC 2011-08-17 18:12:37
Tagged date : UTC 2011-08-30 17:05:26
Writing library : Apple QuickTime
©TSC : 25
©TSZ : 1

Video
ID : 1
Format : DV
Format_Commercial_IfAny : DVCPRO
Codec ID : dvpp
Codec ID/Hint : DVCPRO
Duration : 9mn 42s
Bit rate mode : Constant
Bit rate : 24.4 Mbps
Width : 703 pixels
Original width : 720 pixels
Height : 576 pixels
Display aspect ratio : 16:9
Frame rate mode : Constant
Frame rate : 25.000 fps
Standard : PAL
Color space : YUV
Chroma subsampling : 4:1:1
Bit depth : 8 bits
Scan type : Interlaced
Scan order : Bottom Field First
Compression mode : Lossy
Bits/(Pixel*Frame) : 2.414
Stream size : 1.95 GiB (95%)
Language : English
Encoded date : UTC 2011-08-17 18:12:37
Tagged date : UTC 2011-08-17 18:15:18

***

And here is the information about exported video:
Format : MPEG-4
Format_Commercial_IfAny : DVCPRO
Format profile : QuickTime
Codec ID : qt
File size : 2.06 GiB
Duration : 9mn 42s
Overall bit rate : 30.3 Mbps
Encoded date : UTC 2011-09-24 19:59:53
Tagged date : UTC 2011-09-24 20:01:56
Writing library : Apple QuickTime
©TIM : 00:00:00:00
©TSC : 25
©TSZ : 1

Video
ID : 1
Format : DV
Format_Commercial_IfAny : DVCPRO
Codec ID : dvcp
Duration : 9mn 42s
Bit rate mode : Constant
Bit rate : 24.4 Mbps
Width : 720 pixels
Height : 576 pixels
Display aspect ratio : 16:9
Original display aspect ratio : 4:3
Frame rate mode : Constant
Frame rate : 25.000 fps
Standard : PAL
Color space : YUV
Chroma subsampling : 4:2:0
Bit depth : 8 bits
Scan type : Interlaced
Compression mode : Lossy
Bits/(Pixel*Frame) : 2.357
Stream size : 1.95 GiB (95%)
Language : English
Encoded date : UTC 2011-09-24 19:59:53
Tagged date : UTC 2011-09-24 20:01:56




And final information about my computer:
CPU
Intel(R) Core(TM) i5-2500K CPU @ 3.30GHz
RAM
8.0 GB
OS
Microsoft Windows 7 Service Pack 1 (build 7601), 64-bit (Professional)
Video Card
AMD Radeon HD 6900 Series


Return to posts index

<< PREVIOUS   •   VIEW ALL   •   PRINT   •   NEXT >>
© 2017 CreativeCOW.net All Rights Reserved
[TOP]