FORUMS: list search recent posts

Trying the defaults: ffmpeg -i Freelancers.mov Freelancers.mp4

COW Forums : FFmpeg

<< PREVIOUS   •   VIEW ALL   •   PRINT   •   NEXT >>
LeRoy Grubbs
Trying the defaults: ffmpeg -i Freelancers.mov Freelancers.mp4
on Sep 28, 2012 at 7:24:47 pm

Works if the output file is: ffmpeg -i Freelancers.mov Freelancers.mpg

Example command with result being a output file with scrambled video:

Any Ideas?

Thank you in advance!

LeRoy


ffmpeg -i Freelancers.mov a.mp4
ffmpeg version 0.11.2-tessus Copyright (c) 2000-2012 the FFmpeg developers
built on Sep 20 2012 02:58:13 with llvm_gcc 4.2.1 (Based on Apple Inc. build 5658) (LLVM build 2336.1.00)
configuration: --prefix=/Users/tessus/data/ext/ffmpeg/sw --as=yasm --extra-version=tessus --disable-shared --enable-static --disable-ffplay --disable-ffserver --enable-gpl --enable-pthreads --enable-postproc --enable-libmp3lame --enable-libtheora --enable-libvorbis --enable-libx264 --enable-libxvid --enable-libspeex --enable-bzlib --enable-zlib --enable-libopencore-amrnb --enable-libopencore-amrwb --enable-libxavs --enable-version3 --enable-libvo-aacenc --enable-libvo-amrwbenc --enable-libvpx --enable-libgsm --enable-fontconfig --enable-libfreetype --enable-libass --enable-filters --enable-runtime-cpudetect
libavutil 51. 54.100 / 51. 54.100
libavcodec 54. 23.100 / 54. 23.100
libavformat 54. 6.100 / 54. 6.100
libavdevice 54. 0.100 / 54. 0.100
libavfilter 2. 77.100 / 2. 77.100
libswscale 2. 1.100 / 2. 1.100
libswresample 0. 15.100 / 0. 15.100
libpostproc 52. 0.100 / 52. 0.100
Guessed Channel Layout for Input Stream #0.1 : stereo
Input #0, mov,mp4,m4a,3gp,3g2,mj2, from 'Freelancers.mov':
Metadata:
major_brand : qt
minor_version : 537199360
compatible_brands: qt
creation_time : 2012-09-28 16:23:17
Duration: 00:21:23.28, start: 0.000000, bitrate: 30313 kb/s
Stream #0:0(eng): Video: dvvideo (dvc / 0x20637664), yuv411p, 720x480 [SAR 8:9 DAR 4:3], 28771 kb/s, SAR 10:11 DAR 15:11, 29.97 fps, 29.97 tbr, 2997 tbn, 29.97 tbc
Metadata:
creation_time : 2012-09-28 16:23:17
handler_name : Apple Alias Data Handler
Stream #0:1(eng): Audio: pcm_s16le (sowt / 0x74776F73), 48000 Hz, stereo, s16, 1536 kb/s
Metadata:
creation_time : 2012-09-28 16:23:17
handler_name : Apple Alias Data Handler
Stream #0:2(eng): Data: none (tmcd / 0x64636D74)
Metadata:
creation_time : 2012-09-28 16:30:26
handler_name : Apple Alias Data Handler
timecode : 01:00:00;00
File 'a.mp4' already exists. Overwrite ? [y/N] y
w:720 h:480 pixfmt:yuv411p tb:1/2997 sar:10/11 sws_param:flags=2
[buffersink @ 0x101913e10] No opaque field provided
[format @ 0x101914070] auto-inserting filter 'auto-inserted scaler 0' between the filter 'src' and the filter 'format'
[scale @ 0x101914370] w:720 h:480 fmt:yuv411p sar:10/11 -> w:720 h:480 fmt:yuv422p sar:10/11 flags:0x4
[libx264 @ 0x10204d600] using SAR=10/11
[libx264 @ 0x10204d600] using cpu capabilities: MMX2 SSE2Fast SSSE3 FastShuffle SSE4.1 Cache64
[libx264 @ 0x10204d600] profile High 4:2:2, level 3.0, 4:2:2 8-bit
[libx264 @ 0x10204d600] 264 - core 125 - H.264/MPEG-4 AVC codec - Copyleft 2003-2012 - http://www.videolan.org/x264.html - options: cabac=1 ref=3 deblock=1:0:0 analyse=0x3:0x113 me=hex subme=7 psy=1 psy_rd=1.00:0.00 mixed_ref=1 me_range=16 chroma_me=1 trellis=1 8x8dct=1 cqm=0 deadzone=21,11 fast_pskip=1 chroma_qp_offset=-2 threads=3 lookahead_threads=1 sliced_threads=0 nr=0 decimate=1 interlaced=0 bluray_compat=0 constrained_intra=0 bframes=3 b_pyramid=2 b_adapt=1 b_bias=0 direct=1 weightb=1 open_gop=0 weightp=2 keyint=250 keyint_min=25 scenecut=40 intra_refresh=0 rc_lookahead=40 rc=crf mbtree=1 crf=23.0 qcomp=0.60 qpmin=0 qpmax=69 qpstep=4 ip_ratio=1.40 aq=1:1.00
Output #0, mp4, to 'a.mp4':
Metadata:
major_brand : qt
minor_version : 537199360
compatible_brands: qt
creation_time : 2012-09-28 16:23:17
encoder : Lavf54.6.100
Stream #0:0(eng): Video: h264 (![0][0][0] / 0x0021), yuv422p, 720x480 [SAR 10:11 DAR 15:11], q=-1--1, 2997 tbn, 29.97 tbc
Metadata:
creation_time : 2012-09-28 16:23:17
handler_name : Apple Alias Data Handler
Stream #0:1(eng): Audio: aac (@[0][0][0] / 0x0040), 48000 Hz, stereo, s16, 128 kb/s
Metadata:
creation_time : 2012-09-28 16:23:17
handler_name : Apple Alias Data Handler
Stream mapping:
Stream #0:0 -> #0:0 (dvvideo -> libx264)
Stream #0:1 -> #0:1 (pcm_s16le -> libvo_aacenc)
Press [q] to stop, [?] for help
frame=38460 fps= 40 q=32766.0 Lsize= 100705kB time=00:21:23.21 bitrate= 642.9kbits/s
video:79274kB audio:20052kB global headers:0kB muxing overhead 1.387528%
[libx264 @ 0x10204d600] frame I:206 Avg QP:18.72 size: 16330
[libx264 @ 0x10204d600] frame P:12062 Avg QP:22.48 size: 4666
[libx264 @ 0x10204d600] frame B:26192 Avg QP:26.27 size: 822
[libx264 @ 0x10204d600] consecutive B-frames: 3.0% 18.1% 1.4% 77.5%
[libx264 @ 0x10204d600] mb I I16..4: 21.2% 64.4% 14.5%
[libx264 @ 0x10204d600] mb P I16..4: 4.4% 7.4% 0.7% P16..4: 35.0% 10.2% 4.2% 0.0% 0.0% skip:38.2%
[libx264 @ 0x10204d600] mb B I16..4: 0.1% 0.1% 0.0% B16..8: 24.2% 1.1% 0.1% direct: 1.1% skip:73.2% L0:40.1% L1:56.3% BI: 3.6%
[libx264 @ 0x10204d600] 8x8 transform intra:59.2% inter:81.0%
[libx264 @ 0x10204d600] coded y,uvDC,uvAC intra: 36.6% 51.5% 15.5% inter: 6.4% 16.1% 0.4%
[libx264 @ 0x10204d600] i16 v,h,dc,p: 42% 36% 7% 15%
[libx264 @ 0x10204d600] i8 v,h,dc,ddl,ddr,vr,hd,vl,hu: 30% 19% 25% 4% 5% 6% 4% 4% 4%
[libx264 @ 0x10204d600] i4 v,h,dc,ddl,ddr,vr,hd,vl,hu: 31% 28% 13% 4% 6% 6% 5% 4% 3%
[libx264 @ 0x10204d600] i8c dc,h,v,p: 65% 15% 17% 4%
[libx264 @ 0x10204d600] Weighted P-Frames: Y:1.2% UV:0.8%
[libx264 @ 0x10204d600] ref P L0: 63.4% 10.9% 17.8% 7.8% 0.1%
[libx264 @ 0x10204d600] ref B L0: 87.1% 11.3% 1.5%
[libx264 @ 0x10204d600] ref B L1: 96.3% 3.7%
[libx264 @ 0x10204d600] kb/s:506.05


Return to posts index

Reuben Martin
Re: Trying the defaults: ffmpeg -i Freelancers.mov Freelancers.mp4
on Oct 1, 2012 at 5:10:56 am

Depends on what your are trying to play back the resulting video with. I can tell you right now that if you are trying to play it back with quicktime you are SOL.


Return to posts index

Lou Logan
Re: Trying the defaults: ffmpeg -i Freelancers.mov Freelancers.mp4
on Oct 19, 2012 at 11:40:57 pm

Late reply, but you need to add an output option:
-pix_fmt yuv420p
Many non-FFmpeg based players, such as QuickTime, currently do not yet support 4:2:2 H.264, and ffplay simply converts to 4:2:0 upon playback anyway, AFAIK.


Return to posts index

<< PREVIOUS   •   VIEW ALL   •   PRINT   •   NEXT >>
© 2017 CreativeCOW.net All Rights Reserved
[TOP]