FORUMS: list search recent posts

FFmpeg png to dnxhd mov error

COW Forums : FFmpeg

<< PREVIOUS   •   VIEW ALL   •   PRINT   •   NEXT >>
Jared Glass
FFmpeg png to dnxhd mov error
on Apr 5, 2012 at 9:30:25 am

Hi there

I'm trying to make a create a dnxhd mov with ffmpeg but can't seem to get the codec working.

I've created a 1920x1080 .png to convert into .mov format

My command is as follows:

C:\Users\>C:\Users\\Desktop\mov_test\ffmpeg.exe -i C:\User
s\\Desktop\mov_test\Untitled_1.png -vcodec dnxhd -b:v 120m -an -y C:\

and the error message:

Input #0, image2, from 'C:\Users\\Desktop\mov_test\Untitled_1.png':
Duration: 00:00:00.04, start: 0.000000, bitrate: N/A
Stream #0:0: Video: png, rgb24, 1920x1080, 25 tbr, 25 tbn, 25 tbc
Incompatible pixel format 'rgb24' for codec 'dnxhd', auto-selecting format 'yuv4
[buffer @ 000000000035D630] w:1920 h:1080 pixfmt:rgb24 tb:1/1000000 sar:0/1 sws_
[buffersink @ 000000000035D870] auto-inserting filter 'auto-inserted scale 0' be
tween the filter 'src' and the filter 'out'
[scale @ 000000000035DB00] w:1920 h:1080 fmt:rgb24 sar:0/1 -> w:1920 h:1080 fmt:
yuv422p10le sar:0/1 flags:0x4
<u>[dnxhd @ 00000000003645B0] video parameters incompatible with DNxHD</u>
Output #0, mov, to 'C:\Users\\Desktop\mov_test\':
Stream #0:0: Video: dnxhd, yuv422p10le, 1920x1080, q=2-1024, 90k tbn, 25 tbc

Stream mapping:
Stream #0:0 -> #0:0 (png -> dnxhd)
<u>Error while opening encoder for output stream #0:0 - maybe incorrect parameters
such as bit_rate, rate, width or height</u>

Any ideas pls?

Return to posts index

<< PREVIOUS   •   VIEW ALL   •   PRINT   •   NEXT >>
© 2018 All Rights Reserved