FORUMS: list search recent posts

Audio not copying when re-wrapping .mov to .mpeg

COW Forums : FFmpeg

<< PREVIOUS   •   VIEW ALL   •   PRINT   •   NEXT >>
peter oleksik
Audio not copying when re-wrapping .mov to .mpeg
on Mar 20, 2012 at 9:45:24 pm

I'm trying to re-wrap a H.264 .mov file to a mpeg TS. The video copies over perfectly but the audio will either not copy or will appear as "Mpeg audio". The command I'm using is:

ffmpeg -i original.mov -vbsf h264_mp4toannexb -vcodec copy -acodec copy new.ts

I'm kind of desperate as I really need the audio stream to copy over and want to avoid re-encoding all of these files (there's currently around 400 that I need to do this to).

here's the output of the command. Is there something I"m missing?

Thanks in advance!

ffmpeg version N-38772-gc2e3b56 Copyright (c) 2000-2012 the FFmpeg developers
built on Mar 14 2012 11:38:51 with gcc 4.2.1 (Apple Inc. build 5666) (dot 3)
configuration:
libavutil 51. 42.100 / 51. 42.100
libavcodec 54. 10.100 / 54. 10.100
libavformat 54. 2.100 / 54. 2.100
libavdevice 53. 4.100 / 53. 4.100
libavfilter 2. 64.101 / 2. 64.101
libswscale 2. 1.100 / 2. 1.100
libswresample 0. 7.100 / 0. 7.100
Input #0, mov,mp4,m4a,3gp,3g2,mj2, from '/Users/peteroleksik1/Desktop/447_1975.mov':
Metadata:
major_brand : qt
minor_version : 537199360
compatible_brands: qt
creation_time : 2012-02-24 15:27:20
Duration: 00:06:25.65, start: 0.000000, bitrate: 12405 kb/s
Stream #0:0(eng): Video: h264 (Main) (avc1 / 0x31637661), yuv420p, 720x480 [SAR 10:11 DAR 15:11], 10991 kb/s, 29.97 fps, 29.97 tbr, 2997 tbn, 59.94 tbc
Metadata:
creation_time : 2012-02-24 15:27:20
handler_name : ?Gestionnaire d?alias Apple
Stream #0:1(eng): Audio: pcm_s16le (lpcm / 0x6D63706C), 44100 Hz, 2 channels, s16, 1411 kb/s
Metadata:
creation_time : 2012-02-24 15:27:20
handler_name : ?Gestionnaire d?alias Apple
Stream #0:2(eng): Data: none (tmcd / 0x64636D74)
Metadata:
creation_time : 2012-02-24 15:27:20
handler_name : ?Gestionnaire d?alias Apple
timecode : 01:00:00;00
[mpegts @ 0x101055800] muxrate VBR, pcr every 2 pkts, sdt every 200, pat/pmt every 40 pkts
Output #0, mpegts, to '/Users/peteroleksik1/Desktop/new.ts':
Metadata:
major_brand : qt
minor_version : 537199360
compatible_brands: qt
creation_time : 2012-02-24 15:27:20
encoder : Lavf54.2.100
Stream #0:0(eng): Video: h264 (avc1 / 0x31637661), yuv420p, 720x480 [SAR 10:11 DAR 15:11], q=2-31, 10991 kb/s, 29.97 fps, 90k tbn, 29.97 tbc
Metadata:
creation_time : 2012-02-24 15:27:20
handler_name : ?Gestionnaire d?alias Apple
Stream #0:1(eng): Audio: pcm_s16le (lpcm / 0x6D63706C), 44100 Hz, 2 channels, 1411 kb/s
Metadata:
creation_time : 2012-02-24 15:27:20
handler_name : ?Gestionnaire d?alias Apple
Stream mapping:
Stream #0:0 -> #0:0 (copy)
Stream #0:1 -> #0:1 (copy)
Press [q] to stop, [?] for help
frame= 303 fps=0.0 q=-1.0 size= 14672kB time=00:00:10.00 bitrate=12019.0kbitsframe= 377 fps=358 q=-1.0 size= 18492kB time=00:00:12.57 bitrate=12042.4kbitsframe= 436 fps=273 q=-1.0 size= 21295kB time=00:00:14.54 bitrate=11991.2kbitsframe= 526 fps=249 q=-1.0 size= 25681kB time=00:00:17.55 bitrate=11986.9kbitsframe= 650 fps=245 q=-1.0 size= 31677kB time=00:00:21.68 bitrate=11964.8kbitsframe= 886 fps=280 q=-1.0 size= 43100kB time=00:00:29.56 bitrate=11943.1kbitsframe= 1158 fps=299 q=-1.0 size= 56277kB time=00:00:38.63 bitrate=11931.6kbitsframe= 1498 fps=334 q=-1.0 size= 72672kB time=00:00:49.98 bitrate=11910.6kbitsframe= 1726 fps=346 q=-1.0 size= 83739kB time=00:00:57.59 bitrate=11911.5kbitsframe= 2007 fps=365 q=-1.0 size= 97318kB time=00:01:06.96 bitrate=11904.8kbitsframe= 2353 fps=387 q=-1.0 size= 113960kB time=00:01:18.51 bitrate=11890.7kbitsframe= 2514 fps=380 q=-1.0 size= 121795kB time=00:01:23.88 bitrate=11894.4kbitsframe= 2831 fps=397 q=-1.0 size= 136546kB time=00:01:34.00 bitrate=11899.9kbitsframe= 3047 fps=400 q=-1.0 size= 147660kB time=00:01:41.66 bitrate=11897.8kbitsframe= 3372 fps=412 q=-1.0 size= 163344kB time=00:01:52.51 bitrate=11893.0kbitsframe= 3702 fps=421 q=-1.0 size= 179289kB time=00:02:03.52 bitrate=11890.3kbitsframe= 4037 fps=425 q=-1.0 size= 195551kB time=00:02:14.70 bitrate=11892.6kbitsframe= 4232 fps=423 q=-1.0 size= 204691kB time=00:02:21.00 bitrate=11892.4kbitsframe= 4545 fps=430 q=-1.0 size= 220081kB time=00:02:31.65 bitrate=11888.5kbitsframe= 4883 fps=437 q=-1.0 size= 236497kB time=00:02:42.92 bitrate=11890.9kbitsframe= 5230 fps=442 q=-1.0 size= 253230kB time=00:02:54.50 bitrate=11887.5kbitsframe= 5561 fps=447 q=-1.0 size= 269274kB time=00:03:05.55 bitrate=11888.3kbitsframe= 5899 fps=452 q=-1.0 size= 285626kB time=00:03:16.83 bitrate=11887.7kbitsframe= 6164 fps=455 q=-1.0 size= 298401kB time=00:03:25.67 bitrate=11885.4kbitsframe= 6420 fps=457 q=-1.0 size= 310494kB time=00:03:34.00 bitrate=11885.8kbitsframe= 6578 fps=450 q=-1.0 size= 318454kB time=00:03:39.48 bitrate=11885.8kbitsframe= 6917 fps=456 q=-1.0 size= 334809kB time=00:03:50.79 bitrate=11883.8kbitsframe= 7238 fps=462 q=-1.0 size= 350422kB time=00:04:01.50 bitrate=11886.4kbitsframe= 7424 fps=456 q=-1.0 size= 359355kB time=00:04:07.71 bitrate=11884.0kbitsframe= 7596 fps=449 q=-1.0 size= 367695kB time=00:04:13.45 bitrate=11884.4kbitsframe= 7784 fps=447 q=-1.0 size= 376780kB time=00:04:19.72 bitrate=11884.0kbitsframe= 8076 fps=451 q=-1.0 size= 390877kB time=00:04:29.46 bitrate=11882.8kbitsframe= 8270 fps=447 q=-1.0 size= 400336kB time=00:04:35.94 bitrate=11884.9kbitsframe= 8481 fps=446 q=-1.0 size= 410558kB time=00:04:42.98 bitrate=11885.1kbitsframe= 8738 fps=447 q=-1.0 size= 423000kB time=00:04:51.55 bitrate=11885.2kbitsframe= 8831 fps=441 q=-1.0 size= 427478kB time=00:04:54.66 bitrate=11884.5kbitsframe= 9062 fps=440 q=-1.0 size= 438125kB time=00:05:02.00 bitrate=11884.5kbitsframe= 9286 fps=439 q=-1.0 size= 449523kB time=00:05:09.84 bitrate=11885.0kbitsframe= 9507 fps=439 q=-1.0 size= 459898kB time=00:05:17.00 bitrate=11884.8kbitsframe= 9786 fps=441 q=-1.0 size= 473645kB time=00:05:26.52 bitrate=11883.0kbitsframe= 9965 fps=438 q=-1.0 size= 482253kB time=00:05:32.49 bitrate=11881.6kbitsframe=10143 fps=434 q=-1.0 size= 490871kB time=00:05:38.43 bitrate=11881.7kbitsframe=10306 fps=432 q=-1.0 size= 498677kB time=00:05:43.87 bitrate=11879.7kbitsframe=10491 fps=430 q=-1.0 size= 507546kB time=00:05:50.00 bitrate=11879.5kbitsframe=10594 fps=425 q=-1.0 size= 512661kB time=00:05:53.48 bitrate=11880.8kbitsframe=10652 fps=418 q=-1.0 size= 515423kB time=00:05:55.42 bitrate=11879.8kbitsframe=10811 fps=412 q=-1.0 size= 523202kB time=00:06:00.72 bitrate=11881.7kbitsframe=10860 fps=406 q=-1.0 size= 525076kB time=00:06:02.00 bitrate=11882.4kbitsframe=10982 fps=402 q=-1.0 size= 531462kB time=00:06:06.43 bitrate=11881.4kbitsframe=11162 fps=400 q=-1.0 size= 540040kB time=00:06:12.43 bitrate=11878.5kbitsframe=11299 fps=398 q=-1.0 size= 546629kB time=00:06:17.00 bitrate=11877.9kbitsframe=11354 fps=392 q=-1.0 size= 549458kB time=00:06:18.84 bitrate=11881.3kbitsframe=11467 fps=389 q=-1.0 size= 554947kB time=00:06:22.61 bitrate=11881.7kbitsframe=11498 fps=382 q=-1.0 size= 556440kB time=00:06:23.65 bitrate=11881.5kbitsframe=11558 fps=379 q=-1.0 Lsize= 559337kB time=00:06:25.00 bitrate=11901.5kbits/s
video:517431kB audio:2kB global headers:0kB muxing overhead 8.098579%


Return to posts index

Benjamin de Menil
Re: Audio not copying when re-wrapping .mov to .mpeg
on Nov 9, 2012 at 4:53:55 pm

Hi Peter,

Did you ever find an answer to this? I'm having the same problem.


Ben


Return to posts index

<< PREVIOUS   •   VIEW ALL   •   PRINT   •   NEXT >>
© 2017 CreativeCOW.net All Rights Reserved
[TOP]