FORUMS: list search recent posts

FFserver ain't stream

COW Forums : FFmpeg

<< PREVIOUS   •   VIEW ALL   •   PRINT   •   NEXT >>
Dominik Reider
FFserver ain't stream
on Mar 5, 2011 at 4:54:01 pm

Hello all!

Im struggeling here with an issue and i dont get whats wrong.

First I started FFserver. In another console I typed my ffmpeg command as follows:


domdom@ubuntu:~$ sudo ffmpeg -an -f video4linux2 -s 640x480 -pix_fmt yuyv422 -i /dev/video0 -f mpeg -b 64 -s 160x128 http://localhost:8090/feed1.ffm
FFmpeg version SVN-r0.5.1-4:0.5.1-1ubuntu1, Copyright (c) 2000-2009 Fabrice Bellard, et al.
configuration: --extra-version=4:0.5.1-1ubuntu1 --prefix=/usr --enable-avfilter --enable-avfilter-lavf --enable-vdpau --enable-bzlib --enable-libgsm --enable-libschroedinger --enable-libspeex --enable-libtheora --enable-libvorbis --enable-pthreads --enable-zlib --disable-stripping --disable-vhook --enable-runtime-cpudetect --enable-gpl --enable-postproc --enable-swscale --enable-x11grab --enable-libdc1394 --enable-shared --disable-static
libavutil 49.15. 0 / 49.15. 0
libavcodec 52.20. 1 / 52.20. 1
libavformat 52.31. 0 / 52.31. 0
libavdevice 52. 1. 0 / 52. 1. 0
libavfilter 0. 4. 0 / 0. 4. 0
libswscale 0. 7. 1 / 0. 7. 1
libpostproc 51. 2. 0 / 51. 2. 0
built on Mar 4 2010 12:35:30, gcc: 4.4.3
[video4linux2 @ 0x80a52c0][3]Capabilities: 4000001
Input #0, video4linux2, from '/dev/video0':
Duration: N/A, start: 1299340898.718373, bitrate: -2147483 kb/s
Stream #0.0: Video: rawvideo, yuyv422, 640x480, -2147483 kb/s, 1000k tbr, 1000k tbn, 1000k tbc
WARNING: The bitrate parameter is set too low. It takes bits/s as argument, not kbits/s
Output #0, mpeg, to 'http://localhost:8090/feed1.ffm':
Stream #0.0: Video: mpeg1video, yuv420p, 160x128, q=2-31, 0 kb/s, 90k tbn, 60 tbc
Stream mapping:
Stream #0.0 -> #0.0
Press [q] to stop encoding
domdom@ubuntu:~$


As you can see, the command prompt appears directly without any other lines which shows the streaming... And i dont have a stream... Thats what makes me wondering as the same command works if i put a filename instead of the feed. (I used the original ffserver.conf).

It seems obvious that i missed something, but i dont find anything anywhere in the web...

Any ideas?? Thanks for help in advance!!

cheers dominik


Return to posts index

<< PREVIOUS   •   VIEW ALL   •   PRINT   •   NEXT >>
© 2017 CreativeCOW.net All Rights Reserved
[TOP]