FORUMS: list search recent posts

Problems with Encoding ...

COW Forums : FFmpeg

<< PREVIOUS   •   VIEW ALL   •   PRINT   •   NEXT >>
Lex Frost
Problems with Encoding ...
on Jan 19, 2011 at 6:48:38 pm

My videos will not encode and give a weird error I have never seen before.

---------------------
2011-01-19T18:44:13+00:00 INFO (6): Duration: 337
2011-01-19T18:44:17+00:00 INFO (6):
/home/snet99/public_html/temporary/video/243.avi
/home/snet99/public_html/temporary/video/243_vconverted.flv
/home/snet99/public_html/temporary/video/243_vthumb.jpg
/usr/bin/ffmpeg -i '/home/snet99/public_html/temporary/video/243_vconverted.flv' -f image2 -ss 168.5 -v 2 -y '/home/snet99/public_html/temporary/video/243_vthumb.jpg' 2>&1
FFmpeg version 0.6.1, Copyright (c) 2000-2010 the FFmpeg developers
built on Dec 4 2010 15:37:20 with gcc 4.1.2 20080704 (Red Hat 4.1.2-48)
configuration: --prefix=/usr --libdir=/usr/lib --shlibdir=/usr/lib --mandir=/usr/share/man --incdir=/usr/include --disable-avisynth --extra-cflags='-O2 -g -pipe -Wall -Wp,-D_FORTIFY_SOURCE=2 -fexceptions -fstack-protector --param=ssp-buffer-size=4 -m32 -march=i386 -mtune=generic -fasynchronous-unwind-tables' --enable-avfilter --enable-avfilter-lavf --enable-libdirac --enable-libfaac --enable-libfaad --enable-libfaadbin --enable-libgsm --enable-libmp3lame --enable-libopencore-amrnb --enable-libopencore-amrwb --enable-libx264 --enable-gpl --enable-nonfree --enable-postproc --enable-pthreads --enable-shared --enable-swscale --enable-vdpau --enable-version3 --enable-x11grab
WARNING: library configuration mismatch
libavutil configuration: --enable-gpl --enable-version3 --enable-nonfree --enable-postproc --enable-libfaac --enable-libmp3lame --enable-libxvid --enable-pic --enable-shared
libavcodec configuration: --enable-gpl --enable-version3 --enable-nonfree --enable-postproc --enable-libfaac --enable-libmp3lame --enable-libxvid --enable-pic --enable-shared
libavformat configuration: --enable-gpl --enable-version3 --enable-nonfree --enable-postproc --enable-libfaac --enable-libmp3lame --enable-libxvid --enable-pic --enable-shared
libavdevice configuration: --enable-gpl --enable-version3 --enable-nonfree --enable-postproc --enable-libfaac --enable-libmp3lame --enable-libxvid --enable-pic --enable-shared
libavfilter configuration: --enable-gpl --enable-version3 --enable-nonfree --enable-postproc --enable-libfaac --enable-libmp3lame --enable-libxvid --enable-pic --enable-shared
libswscale configuration: --enable-gpl --enable-version3 --enable-nonfree --enable-postproc --enable-libfaac --enable-libmp3lame --enable-libxvid --enable-pic --enable-shared
libpostproc configuration: --enable-gpl --enable-version3 --enable-nonfree --enable-postproc --enable-libfaac --enable-libmp3lame --enable-libxvid --enable-pic --enable-shared
libavutil 50.15. 1 / 50.36. 0
libavcodec 52.72. 2 / 52.108. 0
libavformat 52.64. 2 / 52.93. 0
libavdevice 52. 2. 0 / 52. 2. 3
libavfilter 1.19. 0 / 1.74. 0
libswscale 0.11. 0 / 0.12. 0
libpostproc 51. 2. 0 / 51. 2. 0
[flv @ 0x86054c0] Estimating duration from bitrate, this may be inaccurate

Seems stream 0 codec frame rate differs from container frame rate: 1000.00 (1000/1) -> 25.00 (25/1)
Input #0, flv, from '/home/snet99/public_html/temporary/video/243_vconverted.flv':
Metadata:
duration : 338
width : 480
height : 386
videodatarate : 195
framerate : 25
videocodecid : 2
audiodatarate : 62
audiosamplerate : 44100
audiosamplesize : 16
stereo : true
audiocodecid : 2
encoder : Lavf52.93.0
filesize : 46961991
Duration: 00:05:37.55, start: 0.000000, bitrate: 264 kb/s
Stream #0.0: Video: flv, yuv420p, 480x386, 200 kb/s, 25 tbr, 1k tbn, 1k tbc
Stream #0.1: Audio: mp3, 44100 Hz, 2 channels, s16, 64 kb/s
Output #0, image2, to '/home/snet99/public_html/temporary/video/243_vthumb.jpg':
Metadata:
encoder : Lavf52.93.0
Stream #0.0: Video: mjpeg, yuvj420p, 480x386, q=2-31, 200 kb/s, 90k tbn, 25 tbc
Stream mapping:
Stream #0.0 -> #0.0
Press [q] to stop encoding
frame= 0 fps= 0 q=0.0 size= -0kB time=10000000000.00 bitrate= -0.0kbits/s
frame= 0 fps= 0 q=0.0 size= -0kB time=10000000000.00 bitrate= -0.0kbits/s
frame= 0 fps= 0 q=0.0 size= -0kB time=10000000000.00 bitrate= -0.0kbits/s
frame= 0 fps= 0 q=0.0 size= -0kB time=10000000000.00 bitrate= -0.0kbits/s
frame= 0 fps= 0 q=0.0 size= -0kB time=10000000000.00 bitrate= -0.0kbits/s
frame= 0 fps= 0 q=0.0 size= -0kB time=10000000000.00 bitrate= -0.0kbits/s
[swscaler @ 0x865a330] bad src image pointers
[swscaler @ 0x865a330] bad src image pointers
[image2 @ 0x8608390] Could not get frame filename from pattern
av_interleaved_write_frame(): Input/output error


Return to posts index

Michael Rampe
Re: Problems with Encoding ...
on Feb 14, 2011 at 11:41:37 pm

[Lex Frost] "WARNING: library configuration mismatch"

[Lex Frost] "[swscaler @ 0x865a330] bad src image pointers"

Looks like an installation error. try to clean and remake FFmpeg.

Michael


Return to posts index

<< PREVIOUS   •   VIEW ALL   •   PRINT   •   NEXT >>
© 2017 CreativeCOW.net All Rights Reserved
[TOP]