FORUMS: list search recent posts

Public Access channel video that needs editing

COW Forums : FFmpeg

<< PREVIOUS   •   VIEW ALL   •   PRINT   •   NEXT >>
Richard Herd
Public Access channel video that needs editing
on Feb 23, 2017 at 9:36:38 pm

The video I received is .mpg, but -i is:

Duration: 04:58:48.48, start: 0.320867, bitrate: 5448 kb/s
Program 1
Stream #0:0[0x200]: Video: mpeg2video (Main) ([2][0][0][0] / 0x0002), yuv420p(tv, bottom first), 720x480 [SAR 8:9 DAR 4:3], Closed Captions, 5000 kb/s, 29.97 fps, 29.97 tbr, 90k tbn, 59.94 tbc
Stream #0:1[0x280](eng): Audio: mp2 ([3][0][0][0] / 0x0003), 48000 Hz, stereo, s16p, 192 kb/s

Premiere Pro brings in the picture but not the audio.

This is my first day of ffmpeg and so I could use a hand with my next step: getting a file I can edit for my client.

Thanks!


Return to posts index

Richard Herd
Re: Public Access channel video that needs editing
on Mar 7, 2017 at 6:02:21 pm

I solved the issue.

fmpeg -i input.mpg -c:v copy -c:a pcm_s16le output.mov

Then when it comes into Premiere it took the 5 hour file several minutes to load.


Return to posts index

<< PREVIOUS   •   VIEW ALL   •   PRINT   •   NEXT >>
© 2017 CreativeCOW.net All Rights Reserved
[TOP]