FORUMS: list search recent posts

Sony Vegas Pro 13 .avi audio problem

COW Forums : VEGAS Pro

<< PREVIOUS   •   VIEW ALL   •   PRINT   •   NEXT >>
John Smith
Sony Vegas Pro 13 .avi audio problem
on Jan 20, 2016 at 6:49:03 am

So first off I've been using Sony Vegas Pro 13 for at least a year on my laptop to render Dxtory video footage with 2 audio tracks. I recently got a new computer and installed the same version of Vegas on it. At first Vegas would crash when I tried to import an avi from Dxtory. I fixed that by switching aviplug.dll with one I downloaded.

So now I can import them and the video plays fine but the audio on both tracks doesn't work. It isn't completely silent about every 8 seconds I get maybe 1 second of audio which sounds perfectly fine. I have searched and searched and I can't find anything relevant that will fix my current issue. The weirdest thing about this is that I have since tried importing an avi on my laptop which this has worked on for about a year and now it seems to have the same problem as my new computer. I would say this was a good thing since it potentially narrows down what the issue might be but nothing has come to light so far.

I know I could use different software to record or I could convert the file I have now but I don't particularly want to go there until I feel like I've tried everything I can so if you're just going to tell me to do one of those things then you don't need to. I'm solely interested in a fix for this specific issue if one exists.

Thanks.

General
Complete name : E:Raw VideoDroid4X 2016-01-16 02-56-33-022.avi
Format : AVI
Format/Info : Audio Video Interleave
Format profile : OpenDML
File size : 27.5 GiB
Duration : 22mn 10s
Overall bit rate : 178 Mbps
Original source form/Distributed by : Video:Lagarith Lossless Codec Audio0:Speakers (Realtek High Definition Audio) Audio1:Microphone (2- USB Audio CODEC )
Writing application : DxtoryCore ver2.0.0.127

Video
ID : 0
Format : Lagarith
Codec ID : LAGS
Duration : 22mn 9s
Bit rate : 175 Mbps
Width : 1 920 pixels
Height : 1 080 pixels
Display aspect ratio : 16:9
Frame rate : 60.000 fps
Color space : RGB
Bit depth : 8 bits
Bits/(Pixel*Frame) : 1.405
Stream size : 27.1 GiB (98%)

Audio #1
ID : 1
Format : PCM
Format settings, Endianness : Little
Format settings, Sign : Signed
Codec ID : 1
Duration : 22mn 10s
Bit rate mode : Constant
Bit rate : 1 536 Kbps
Channel(s) : 2 channels
Sampling rate : 48.0 KHz
Bit depth : 16 bits
Stream size : 244 MiB (1%)
Alignment : Aligned on interleaves
Interleave, duration : 100 ms (6.00 video frames)

Audio #2
ID : 2
Format : PCM
Format settings, Endianness : Little
Format settings, Sign : Signed
Codec ID : 1
Duration : 22mn 10s
Bit rate mode : Constant
Bit rate : 1 536 Kbps
Channel(s) : 2 channels
Sampling rate : 48.0 KHz
Bit depth : 16 bits
Stream size : 244 MiB (1%)
Alignment : Aligned on interleaves
Interleave, duration : 100 ms (6.00 video frames)


Return to posts index

mick hansen
Re: Sony Vegas Pro 13 .avi audio problem
on Jan 20, 2016 at 11:51:53 pm

During transferring video files from old system to new one, there is also a chance of file corruption. After corruption of video file when you try to open it, then it does not play and gives some error message. To know about video file damaging and repair process, check this URL: http://bestsoftwareproducts.com/use-this-software-to-repair-avi-video-files...


Return to posts index

Wayne Waag
Re: Sony Vegas Pro 13 .avi audio problem
on Jan 21, 2016 at 1:57:37 am
Last Edited By Wayne Waag on Jan 21, 2016 at 9:21:21 pm

Have you installed the new Lagarith codec package on your new system?

wwaag


Return to posts index


John Smith
Re: Sony Vegas Pro 13 .avi audio problem
on Jan 21, 2016 at 12:34:30 pm

There was no video transferred from one system to another. The files I tested on each computer were recorded on that same computer. On my laptop I even tested an avi that I had previously used without any problems and it was no longer working. Yes Lagarith is installed.


Return to posts index

Wayne Waag
Re: Sony Vegas Pro 13 .avi audio problem
on Jan 21, 2016 at 4:01:37 pm

Can you upload a short clip to something like Dropbox? I'd be happy to try it on my system.

wwaag


Return to posts index

<< PREVIOUS   •   VIEW ALL   •   PRINT   •   NEXT >>
© 2017 CreativeCOW.net All Rights Reserved
[TOP]