FORUMS: list search recent posts

[SOLVED] Unable to import mp4 into Sony Vegas Pro 11/12/13, and can't play on QuickTime

COW Forums : VEGAS Pro

<< PREVIOUS   •   VIEW ALL   •   PRINT   •   NEXT >>
John Ryan Fajardo
[SOLVED] Unable to import mp4 into Sony Vegas Pro 11/12/13, and can't play on QuickTime
on Jan 10, 2016 at 5:46:32 am
Last Edited By John Ryan Fajardo on Jan 11, 2016 at 3:38:19 am

SOLUTION:
Use QuickTime version 7.6.5

=========================================================================
Hi, after searching through the internets for days to find a solution, I come here. I use Bandicam to record my videos, and I usually had no problems importing them into Sony Vegas. What's wrong?

Actions that might relate to the cause:
- Uninstalled and reinstalled QuickTime (which also upgraded it, I normally don't upgrade it, just iTunes.)
- GPU update

And yes, I run Sony Vegas as administrator.
===============================================================================
It can open WMV, but not MP4 or AVI. I get these messages,

MP4:


AVI:

================================================================
The videos play fine on VLC and WMP, but NOT QuickTime.

On QuickTime, I get the message:

=============================================================
Here is the file information using MediaInfo:

General
Complete name : G:\Game vids\Hearthstone\Classic pack openings\bandicam 0126.mp4
Format : MPEG-4
Format profile : Base Media
Codec ID : isom (mp41)
File size : 14.7 MiB
Duration : 18s 500ms
Overall bit rate mode : Variable
Overall bit rate : 6 679 Kbps
Encoded date : UTC 2015-12-30 20:51:33
Tagged date : UTC 2015-12-30 20:51:33
Writing application : BandiMp4Muxer 1.0

Video
ID : 1
Format : MPEG-4 Visual
Format profile : Simple@L1
Format settings, BVOP : Yes
Format settings, QPel : No
Format settings, GMC : No warppoints
Format settings, Matrix : Default (H.263)
Codec ID : 20
Duration : 18s 500ms
Bit rate mode : Variable
Bit rate : 6 478 Kbps
Maximum bit rate : 42.2 Mbps
Width : 1 920 pixels
Height : 1 080 pixels
Display aspect ratio : 16:9
Frame rate mode : Variable
Frame rate : 15.838 fps
Minimum frame rate : 0.480 fps
Maximum frame rate : 60.060 fps
Original frame rate : 60.000 fps
Color space : YUV
Bit depth : 8 bits
Scan type : Progressive
Compression mode : Lossy
Bits/(Pixel*Frame) : 0.197
Stream size : 14.3 MiB (97%)
Language : English
Encoded date : UTC 2015-12-30 20:51:33
Tagged date : UTC 2015-12-30 20:51:33

Audio
ID : 2
Format : AAC
Format/Info : Advanced Audio Codec
Format profile : LC
Codec ID : 40
Duration : 18s 497ms
Duration_LastFrame : 1ms
Bit rate mode : Variable
Bit rate : 192 Kbps
Maximum bit rate : 272 Kbps
Channel(s) : 2 channels
Channel positions : Front: L R
Sampling rate : 48.0 KHz
Frame rate : 46.875 fps (1024 spf)
Compression mode : Lossy
Stream size : 441 KiB (3%)
Language : English
Encoded date : UTC 2015-12-30 20:51:33
Tagged date : UTC 2015-12-30 20:51:33
====================================================================
I hope you can help solve my problem. I appreciate your time and effort to do so. Thank you ~

Here are my Bandicam settings, just in case (although these have always stayed the same). I never use AVI (because of filesize), only to test.

MP4 Settings:


AVI Settings:


Return to posts index

Graham Bernard
Re: Unable to import mp4 into Sony Vegas Pro 11/12/13, and can't play on QuickTime
on Jan 10, 2016 at 8:15:08 am
Last Edited By Graham Bernard on Jan 10, 2016 at 8:16:23 am

Update QT and Reboot PC.

* Grazie

Video Content Creator and Potter
PC 7 64-bit 16gb * Intel® Core™i7-2600k Quad Core 3.40GHz * 2GB NVIDIA GEFORCE GTX 560 Ti
Cameras: Canon XF300 + PowerShot SX50HS Bridge


Return to posts index

John Ryan Fajardo
Re: Unable to import mp4 into Sony Vegas Pro 11/12/13, and can't play on QuickTime
on Jan 10, 2016 at 10:17:35 pm
Last Edited By John Ryan Fajardo on Jan 10, 2016 at 11:49:21 pm

I have the latest version of QuickTime (version 7.7.9), as I mentioned earlier. Still won't open.


Return to posts index


John Ryan Fajardo
Re: Unable to import mp4 into Sony Vegas Pro 11/12/13, and can't play on QuickTime
on Jan 10, 2016 at 11:58:33 pm
Last Edited By John Ryan Fajardo on Jan 11, 2016 at 12:03:50 am

UPDATE:

I recorded using these Bandicam settings, and was able to import them. The difference here is that I used a Motion-JPEG codec for the AVI, instead of the Xvid.

====================================================
Here is the file information using MediaInfo:
General
Complete name : G:\Game vids\Hearthstone Classic Pack openings\bandicam 0148.avi
Format : AVI
Format/Info : Audio Video Interleave
File size : 817 KiB
Duration : 144ms
Overall bit rate : 46.5 Mbps
Writing application : BandiAviMuxer 1.0

Video
ID : 0
Format : JPEG
Codec ID : MJPG
Duration : 142ms
Bit rate : 46.8 Mbps
Width : 1 920 pixels
Height : 1 080 pixels
Display aspect ratio : 16:9
Frame rate mode : Variable
Frame rate : 120.000 (24/30) fps
Minimum frame rate : 24.000 fps
Maximum frame rate : 30.000 fps
Color space : YUV
Chroma subsampling : 4:2:0
Bit depth : 8 bits
Compression mode : Lossy
Bits/(Pixel*Frame) : 0.188
Stream size : 809 KiB (99%)

Audio
ID : 1
Format : MPEG Audio
Format version : Version 1
Format profile : Layer 2
Codec ID : 50
Duration : 144ms
Bit rate mode : Constant
Bit rate : 192 Kbps
Channel(s) : 2 channels
Sampling rate : 48.0 KHz
Compression mode : Lossy
Stream size : 3.38 KiB (0%)
Alignment : Aligned on interleaves
Interleave, duration : 24 ms (2.83 video frames)
========================================================================
Although it's great this one works, I still prefer using MP4 with my original settings as the file size difference is huge. Just thought this new information might help.

Do I need to install a certain codec or something?


Return to posts index

John Ryan Fajardo
Re: Unable to import mp4 into Sony Vegas Pro 11/12/13, and can't play on QuickTime
on Jan 11, 2016 at 3:37:09 am

SOLVED! See the first post (now edited) for the solution!


Return to posts index

<< PREVIOUS   •   VIEW ALL   •   PRINT   •   NEXT >>
© 2017 CreativeCOW.net All Rights Reserved
[TOP]