FORUMS: list search recent posts

Rendering Issues Vegas Pro 13

COW Forums : VEGAS Pro

<< PREVIOUS   •   VIEW ALL   •   PRINT   •   NEXT >>
Andrew Bott
Rendering Issues Vegas Pro 13
on Nov 3, 2015 at 6:22:39 pm

Hello,

I've tried many rendering many different ways [Full video specs and links below my signature]:

1) Output video: success but with large square pixels on movement.

2) After searching help, I've made sure the project settings and rendering settings match.

No pixels, but new video freezes after a minute or so so we cannot watch it.

I've tried so many options:

AVC, 29.97, 1920x1080 but all fail.


Which settings should I use to render at full quality, without square pixels?

[I can use ClipChamp to convert and compress my videos later.]


Thank you so much,
Andrew


Full video properties below:

Source video:
=============
c1.mp4: Source Video
General
ID : 0 (0x0)
Complete name : C1 My Wonderful Life.mp4
Format : MPEG-TS
File size : 495 MiB
Duration : 4mn 6s
Overall bit rate mode : Variable
Overall bit rate : 16.8 Mbps
Maximum Overall bit rate : 40.0 Mbps

Video
ID : 4113 (0x1011)
Menu ID : 1 (0x1)
Format : AVC
Format/Info : Advanced Video Codec
Format profile : High@L4
Format settings, CABAC : Yes
Format settings, ReFrames : 2 frames
Codec ID : 27
Duration : 4mn 6s
Bit rate mode : Variable
Bit rate : 15.8 Mbps
Maximum bit rate : 17.0 Mbps
Width : 1 920 pixels
Height : 1 080 pixels
Display aspect ratio : 16:9
Frame rate : 29.970 fps
Color space : YUV
Chroma subsampling : 4:2:0
Bit depth : 8 bits
Scan type : Interlaced
Scan order : Top Field First
Bits/(Pixel*Frame) : 0.254
Stream size : 463 MiB (94%)

Audio
ID : 4352 (0x1100)
Menu ID : 1 (0x1)
Format : AC-3
Format/Info : Audio Coding 3
Mode extension : CM (complete main)
Format settings, Endianness : Big
Codec ID : 129
Duration : 4mn 6s
Bit rate mode : Constant
Bit rate : 256 Kbps
Channel(s) : 2 channels
Channel positions : Front: L R
Sampling rate : 48.0 KHz
Compression mode : Lossy
Delay relative to video : 15ms
Stream size : 7.52 MiB (2%)


Rendered File
=============
c1.m2ts: Rendered Video
General
ID : 0 (0x0)
Complete name : C1 My Beautiful Life.m2ts
Format : BDAV
Format/Info : Blu-ray Video
File size : 491 MiB
Duration : 4mn 31s
Overall bit rate mode : Variable
Overall bit rate : 15.2 Mbps
Maximum Overall bit rate : 18.0 Mbps

Video
ID : 4113 (0x1011)
Menu ID : 1 (0x1)
Format : AVC
Format/Info : Advanced Video Codec
Format profile : High@L4
Format settings, CABAC : Yes
Format settings, ReFrames : 2 frames
Codec ID : 27
Duration : 3mn 22s
Bit rate mode : Variable
Bit rate : 14.4 Mbps
Maximum bit rate : 22.0 Mbps
Width : 1 920 pixels
Height : 1 080 pixels
Display aspect ratio : 16:9
Frame rate : 29.970 fps
Color space : YUV
Chroma subsampling : 4:2:0
Bit depth : 8 bits
Scan type : Interlaced
Scan order : Top Field First
Bits/(Pixel*Frame) : 0.231
Stream size : 346 MiB (70%)

Audio
ID : 4352 (0x1100)
Menu ID : 1 (0x1)
Format : AC-3
Format/Info : Audio Coding 3
Mode extension : CM (complete main)
Format settings, Endianness : Big
Codec ID : 129
Duration : 4mn 31s
Bit rate mode : Constant
Bit rate : 192 Kbps
Channel(s) : 2 channels
Channel positions : Front: L R
Sampling rate : 48.0 KHz
Compression mode : Lossy
Delay relative to video : -33ms
Stream size : 6.22 MiB (1%)


Return to posts index

<< PREVIOUS   •   VIEW ALL   •   PRINT   •   NEXT >>
© 2017 CreativeCOW.net All Rights Reserved
[TOP]