FORUMS: list search recent posts

[BUG?]Creating different configuration for audio tracks

COW Forums : VEGAS Pro

<< PREVIOUS   •   VIEW ALL   •   PRINT   •   NEXT >>
Matheus Graciano
[BUG?]Creating different configuration for audio tracks
on Jan 31, 2015 at 7:20:14 am
Last Edited By Matheus Graciano on Jan 31, 2015 at 8:53:54 am

Hey guys

So, i've been using Vegas for a long time, and i've used an recorder called Action!, which served me greatly since i could record already separate audio tracks, then i would just import them on Vegas and start working.

The problem is, my Vegas started to make two tracks for a single audio with each one in one side of the headphone, and i didnt even clicked in options for a long time. So instead of having 2 audio tracks (system and voice) now i have 2 tracks for system and two tracks for voice, each track for a side of the speaker. How can i solve it, or make it back how it was?

Heres a print, with the system sound only. Thanks in advance



General
Complete name : C:\Users\Matheus\Videos\endorsementgalaxy.avi
Format : AVI
Format/Info : Audio Video Interleave
File size : 23.4 MiB
Duration : 5s 760ms
Overall bit rate : 34.0 Mbps

Video
ID : 0
Format : FICV
Codec ID : FICV
Duration : 5s 733ms
Bit rate : 30.7 Mbps
Width : 1 920 pixels
Height : 1 055 pixels
Display aspect ratio : 1.85:1
Frame rate : 30.000 fps
Bits/(Pixel*Frame) : 0.505
Stream size : 21.0 MiB (90%)

Audio #1
ID : 1
Format : PCM
Format settings, Endianness : Little
Format settings, Sign : Signed
Codec ID : 1
Duration : 5s 760ms
Bit rate mode : Constant
Bit rate : 1 536 Kbps
Channel(s) : 2 channels
Sampling rate : 48.0 KHz
Bit depth : 16 bits
Stream size : 1.05 MiB (5%)
Alignment : Aligned on interleaves
Interleave, duration : 10 ms (0.30 video frame)

Audio #2
ID : 2
Format : PCM
Format settings, Endianness : Little
Format settings, Sign : Signed
Codec ID : 1
Duration : 5s 760ms
Bit rate mode : Constant
Bit rate : 1 536 Kbps
Channel(s) : 2 channels
Sampling rate : 48.0 KHz
Bit depth : 16 bits
Stream size : 1.05 MiB (5%)
Alignment : Aligned on interleaves
Interleave, duration : 10 ms (0.30 video frame)


Return to posts index

Graham Bernard
Re: [BUG?]Creating different configuration for audio tracks
on Jan 31, 2015 at 8:48:50 am

Run your Media through MediaInfo and report back here.

Grazie

Video Content Creator and Potter
PC 7 64-bit 16gb * Intel® Core™i7-2600k Quad Core 3.40GHz * 2GB NVIDIA GEFORCE GTX 560 Ti
Cameras: Canon XF300 + PowerShot SX50HS Bridge


Return to posts index

Matheus Primo
Re: [BUG?]Creating different configuration for audio tracks
on Jan 31, 2015 at 8:52:06 am
Last Edited By Matheus Primo on Jan 31, 2015 at 8:53:29 am

Yea sorry about that, i thought you guys would ask for it. Updated the first post.



Return to posts index



John Rofrano
Re: [BUG?]Creating different configuration for audio tracks
on Jan 31, 2015 at 7:53:46 pm

Go into Options | Preferences | General ad make sure that [_] Import stereo as dual mono is NOT checked.

~jr

http://www.johnrofrano.com
http://www.vasst.com



Return to posts index

<< PREVIOUS   •   VIEW ALL   •   PRINT   •   NEXT >>
© 2017 CreativeCOW.net All Rights Reserved
[TOP]