FORUMS: list search recent posts

File is corrupt or an unknown format

COW Forums : VEGAS Pro

<< PREVIOUS   •   VIEW ALL   •   PRINT   •   NEXT >>
Whit Prophet
File is corrupt or an unknown format
on Aug 24, 2017 at 11:12:34 am

Hi

I have tried importing a file and get the error message, File is corrupt or an unknown format.

I can play the video with WMP and I can import it in Cyberlink Power Director, but it will not import into Vegas Pro 14.

Any suggestions for an approach to solving this?

The file is available here if someone would have the time to download and attempt loading it.

Here is a link to download a game: https://www.dropbox.com/s/ysuaie6bg3zs4ao/NS%20Vs%20Vees%20ViPr%20Scorebar....

I am afraid all my video this upcoming season will be like this and my hands will be tied.

Thanks

Whit


Return to posts index

Whit Prophet
Re: File is corrupt or an unknown format
on Aug 24, 2017 at 9:02:21 pm

Further info:

The video is a stitched output of a Pixellot camera.

Here is the MediaInfo data on the file:

Encoded date : UTC 2017-05-26 16:18:53
Tagged date : UTC 2017-05-26 16:18:53
Writing application : vlc 2.2.4 stream output

Video
ID : 2
Format : AVC
Format/Info : Advanced Video Codec
Format profile : High@L3.1
Format settings, CABAC : Yes
Format settings, RefFrames : 4 frames
Codec ID : avc1
Codec ID/Info : Advanced Video Coding
Duration : 1 h 59 min
Bit rate : 1 503 kb/s
Width : 1 280 pixels
Height : 738 pixels
Original height : 720 pixels
Display aspect ratio : 1.734
Original display aspect ratio : 16:9
Frame rate mode : Variable
Frame rate : 24.973 FPS
Minimum frame rate : 1.389 FPS
Maximum frame rate : 25.000 FPS
Original frame rate : 25.000 FPS
Color space : YUV
Chroma subsampling : 4:2:0
Bit depth : 8 bits
Scan type : Progressive
Bits/(Pixel*Frame) : 0.064
Stream size : 1.26 GiB (88%)
Language : English
Encoded date : UTC 2017-05-26 16:18:53
Tagged date : UTC 2017-05-26 16:18:53
mdhd_Duration : 2884633

Audio
ID : 1
Format : mp3
Codec ID : 0
Duration : 1 h 59 min
Source duration : 1 h 59 min
Bit rate mode : Variable
Bit rate : 192 kb/s
Maximum bit rate : 4 347 kb/s
Channel(s) : 2 channels
Sampling rate : 44.1 kHz
Bit depth : 16 bits
Stream size : 164 MiB (11%)
Source stream size : 164 MiB (11%)
Language : English
Encoded date : UTC 2017-05-26 16:18:53
Tagged date : UTC 2017-05-26 16:18:53
mdhd_Duration : 7179771


Return to posts index

Aaron Star
Re: File is corrupt or an unknown format
on Aug 25, 2017 at 7:55:25 am

Some odd things about the format:

Writing application : vlc 2.2.4 stream output

Width : 1 280 pixels
Height : 738 pixels

Frame rate mode : Variable
Frame rate : 24.973 FPS
Minimum frame rate : 1.389 FPS
Maximum frame rate : 25.000 FPS

That's an odd video format for hardware to be writing.

I would try re-encoding it with Handbrake or FFMPEG (if you know command line.)


Return to posts index

<< PREVIOUS   •   VIEW ALL   •   PRINT   •   NEXT >>
© 2017 CreativeCOW.net All Rights Reserved
[TOP]