FORUMS: list search recent posts

MP4 with MOV wrapper audio only

COW Forums : VEGAS Pro

<< PREVIOUS   •   VIEW ALL   •   PRINT   •   NEXT >>
Alexandre Lessard
MP4 with MOV wrapper audio only
on Feb 23, 2017 at 6:59:10 pm

So i have a .mp4 file with a MOV wrapper (i think! i'm not an expert on the subject) and for some reason this file in particular cannot open the video feed when i import it into vegas 14 (But the audio is fine). All my other MP4 videos work fine but this one is giving me trouble. it plays fine in Windows media player.

I'm not sure what information you guys need to help me with this.

This video was made by steaming an m3u8 using VLC.

I just reinstalled the software but nothing changed.

Thanks for the help.


Return to posts index

Paul Berk
Re: MP4 with MOV wrapper audio only
on Feb 23, 2017 at 11:08:18 pm

Alex ... you need to run "media info" and post the results for the max amount of help here.

It's a shareware program. So no charge unless you want to donate.

https://mediaarea.net/en/MediaInfo


Return to posts index

Alexandre Lessard
Re: MP4 with MOV wrapper audio only
on Feb 24, 2017 at 12:00:47 am

That is a super cool nifty tool! Thanks you!

here is what came out.

General
Format : MPEG-4
Format profile : Base Media
Codec ID : isom (mp41/avc1)
File size : 444 MiB
Duration : 12 min 22 s
Overall bit rate mode : Variable
Overall bit rate : 5 020 kb/s
Encoded date : UTC 2017-02-23 18:16:19
Tagged date : UTC 2017-02-23 18:16:19
Writing application : vlc 2.2.4 stream output
Comment : QuickTime 6.0 or greater

Video
ID : 1
Format : AVC
Format/Info : Advanced Video Codec
Format profile : Main@L3.1
Format settings, CABAC : Yes
Format settings, ReFrames : 4 frames
Codec ID : avc1
Codec ID/Info : Advanced Video Coding
Duration : 12 min 21 s
Bit rate : 4 800 kb/s
Width : 1 920 pixels
Height : 1 088 pixels
Original height : 1 080 pixels
Display aspect ratio : 16:9
Original display aspect ratio : 16:9
Frame rate mode : Constant
Frame rate : 24.000 FPS
Color space : YUV
Chroma subsampling : 4:2:0
Bit depth : 8 bits
Scan type : Progressive
Bits/(Pixel*Frame) : 0.096
Stream size : 432 MiB (97%)
Writing library : x264 core 148
Encoding settings : cabac=1 / ref=3 / deblock=1:0:0 / analyse=0x1:0x111 / me=hex / subme=7 / psy=1 / psy_rd=1.00:0.00 / mixed_ref=1 / me_range=16 / chroma_me=1 / trellis=1 / 8x8dct=0 / cqm=0 / deadzone=21,11 / fast_pskip=1 / chroma_qp_offset=-2 / threads=34 / lookahead_threads=5 / sliced_threads=0 / nr=0 / decimate=1 / interlaced=0 / bluray_compat=0 / constrained_intra=0 / bframes=3 / b_pyramid=2 / b_adapt=1 / b_bias=0 / direct=1 / weightb=1 / open_gop=0 / weightp=2 / keyint=90 / keyint_min=9 / scenecut=0 / intra_refresh=0 / rc_lookahead=40 / rc=abr / mbtree=1 / bitrate=4800 / ratetol=1.0 / qcomp=0.60 / qpmin=0 / qpmax=69 / qpstep=4 / ip_ratio=1.40 / aq=1:1.00
Language : English
Encoded date : UTC 2017-02-23 18:16:19
Tagged date : UTC 2017-02-23 18:16:19
Color range : Limited
Color primaries : BT.709
Transfer characteristics : BT.709
Matrix coefficients : BT.709

Audio
ID : 2
Format : AAC
Format/Info : Advanced Audio Codec
Format profile : LC
Codec ID : 40
Duration : 12 min 22 s
Source duration : 12 min 21 s
Bit rate mode : Variable
Bit rate : 126 kb/s
Maximum bit rate : 200 kb/s
Channel(s) : 2 channels
Channel positions : Front: L R
Sampling rate : 44.1 kHz
Frame rate : 43.066 FPS (1024 spf)
Compression mode : Lossy
Stream size : 11.1 MiB (3%)
Source stream size : 11.1 MiB (3%)
Language : English
Encoded date : UTC 2017-02-23 18:16:19
Tagged date : UTC 2017-02-23 18:16:19
mdhd_Duration : 742133

Thanks for the help


Return to posts index


Alexandre Lessard
Re: MP4 with MOV wrapper audio only
on Mar 8, 2017 at 9:33:46 pm

I contacted Magix and they told me that it was going to be added to the known issues.

Thanks for the help.


Return to posts index

<< PREVIOUS   •   VIEW ALL   •   PRINT   •   NEXT >>
© 2017 CreativeCOW.net All Rights Reserved
[TOP]