FORUMS: list search recent posts

Render for blue ray

COW Forums : VEGAS Pro

<< PREVIOUS   •   VIEW ALL   •   PRINT   •   NEXT >>
harry singh
Render for blue ray
on Oct 7, 2016 at 6:32:04 pm

Hello.

Thank to creative cow , because there is such platform where we can sort our problems related to our profession. there are many many genius people who has a lot experience in their specific field.
i am working in Sony Vegas pro from last 4 years but every time i have new challenge.

before now i was working on free lancing from my home. but one week before i join one job on monthly income basis in one studio. They Are production in wedding videos ans working in Sony a7 and cannon 5D mark cameras. for videos . some time Sony nx1 also. and editing mostly they are doing in ( Grassvelly Edius 5.5 ) and they give to client Blue rays

at this moment they hire me for one month probation period they will see my work in month after they decide they will continue or no.

now my problem is here to come i found they render whole project in edius with Mpeg 1920x1080 25 frames with Constant Bit rate 80 Mbps. he render file is big 1 Hour is approx 40 Gb. and their file extension is .mpeg ,
after they make blue ray with this rendered file in another software like

but when i render project in sony vegas pro 13 with mpeg 2 1980x1080 25 frames with 80 mbps. =but the quality is not good as grassvelly edius. and my file extension is .m2t avchd video,

2nd sony vegas pro take 5 hours for 1 hour project file. and edius take 2 hours for 1.30 hours video.


Edius computer specs is
i7 6700k with asus mother board. 8 gb 1600 mhz ram with nvidia gtx 960 Graphic

Sony computer specs is
i7 4770k with GigaByte H87 mother board. 16 gb 1600 mhz ram with amd r7 260x Graphic



now my question is am i missing Something to render for blue ray. or what i do to render with good quality. for blue ray

i tried one method i apply sony fx " Levels " whole video track ans set to " computer rgb to studio rgb "


it enhance the contrast. but they catch my this trick.

the output is more Detail and colours thn i render in sony vegas pro . here i send my medi info which i checked both pc.

please guide me what i should to do to take full advantage on sony to alive my job

thnx .

this the footage of Sony A7 Cameras.


General
ID : 0 (0x0)
Complete name : C:\Users\King\Videos\New folder\00000.MTS
Format : BDAV
Format/Info : Blu-ray Video
File size : 19.4 MiB
Duration : 6 s 748 ms
Overall bit rate mode : Variable
Overall bit rate : 24.0 Mb/s
Maximum Overall bit rate : 28.0 Mb/s

Video
ID : 4113 (0x1011)
Menu ID : 1 (0x1)
Format : AVC
Format/Info : Advanced Video Codec
Format profile : High@L4.2
Format settings, CABAC : Yes
Format settings, ReFrames : 2 frames
Format settings, GOP : M=1, N=12
Codec ID : 27
Duration : 6 s 240 ms
Bit rate mode : Variable
Bit rate : 22.8 Mb/s
Maximum bit rate : 26.0 Mb/s
Width : 1 920 pixels
Height : 1 080 pixels
Display aspect ratio : 16:9
Frame rate : 50.000 FPS
Color space : YUV
Chroma subsampling : 4:2:0
Bit depth : 8 bits
Scan type : Progressive
Bits/(Pixel*Frame) : 0.220
Stream size : 17.0 MiB (87%)

Audio
ID : 4352 (0x1100)
Menu ID : 1 (0x1)
Format : AC-3
Format/Info : Audio Coding 3
Mode extension : CM (complete main)
Format settings, Endianness : Big
Codec ID : 129
Duration : 6 s 240 ms
Bit rate mode : Constant
Bit rate : 256 kb/s
Channel(s) : 2 channels
Channel positions : Front: L R
Sampling rate : 48.0 kHz
Frame rate : 31.250 FPS (1536 spf)
Compression mode : Lossy
Stream size : 195 KiB (1%)

Text
ID : 4608 (0x1200)
Menu ID : 1 (0x1)
Format : PGS
Codec ID : 144
Duration : 5 s 695 ms

Regards
harry


Return to posts index

<< PREVIOUS   •   VIEW ALL   •   PRINT   •   NEXT >>
© 2017 CreativeCOW.net All Rights Reserved
[TOP]