FORUMS: list search recent posts

Sorenson Squeeze (V8) importing AVI problem

COW Forums : Compression Techniques

<< PREVIOUS   •   VIEW ALL   •   PRINT   •   NEXT >>
Mike Berry
Sorenson Squeeze (V8) importing AVI problem
on Sep 16, 2012 at 4:50:22 am

Sorenson Squeeze importing AVI problem



I exported an uncompressed Microsoft AVI file from Adobe Premier CS5.5, but when I try to import it into Sorenson Squeeze (8.5.0.41) it just shows a black screen in the viewing window. The sound plays perfectly, but there is no picture. Does anyone know what the problem might be?

Here's the MediaInfo on the file I'm trying to import:


General
Complete name : F:test.avi
Format : AVI
Format/Info : Audio Video Interleave
Format profile : OpenDML
File size : 49.2 GiB
Duration : 11mn 45s
Overall bit rate : 599 Mbps
Recorded date : 2012-09-16T00:14:56.00861+01:00
Writing application : Adobe Premiere Pro 5.5

Video
ID : 0
Format : YUV
Codec ID : v210
Codec ID/Hint : AJA Video Systems Xena
Duration : 11mn 45s
Bit rate : 597 Mbps
Width : 1 280 pixels
Height : 720 pixels
Display aspect ratio : 16:9
Frame rate : 30.000 fps
Color space : YUV
Chroma subsampling : 4:2:2
Bit depth : 10 bits
Compression mode : Lossless
Bits/(Pixel*Frame) : 21.600
Stream size : 49.1 GiB (100%)

Audio
ID : 1
Format : PCM
Format settings, Endianness : Little
Format settings, Sign : Signed
Codec ID : 00001000-0000-0100-8000-00AA00389B71
Duration : 11mn 45s
Bit rate mode : Constant
Bit rate : 1 536 Kbps
Channel(s) : 2 channels
Sampling rate : 48.0 KHz
Bit depth : 16 bits
Stream size : 129 MiB (0%)
Interleave, duration : 9937 ms (298.11 video frames)



Hope someone can help.

Mike.


Return to posts index

<< PREVIOUS   •   VIEW ALL   •   PRINT   •   NEXT >>
© 2017 CreativeCOW.net All Rights Reserved
[TOP]