Creative COW SIGN IN :: SPONSORS :: ADVERTISING :: ABOUT US :: CONTACT US :: FAQ
Creative COW's LinkedIn GroupCreative COW's Facebook PageCreative COW on TwitterCreative COW's Google+ PageCreative COW on YouTube
FORUMS:listlist (w/ descriptions)archivetagssearchhall of famerecent posts

Re: Split DirectShow Capture

COW Forums : FFmpeg

VIEW ALL   •   ADD A NEW POST   •   PRINT
Share on Facebook
Respond to this post   •   Return to posts index   •   Read entire thread


Luana BlackRe: Split DirectShow Capture
by on Jan 8, 2012 at 6:23:11 am

Thanks. I tried what you said but it still isnt working:
ffmpeg.exe" -f dshow -s 320x240 -i video="Video WebCam":audio="Micr¢fono (Realtek High Definit" -vcodec ffv1 -acodec pcm_s16le -map 0 -r 5 -f segment -segment_time 10 -container_format avi -segment_pattern %03d -segment_basename output dummy_out.avi

ffmpeg version N-36492-g7f83db3, Copyright (c) 2000-2012 the FFmpeg developers
built on Jan 5 2012 01:57:12 with gcc 4.6.2
configuration: --enable-gpl --enable-version3 --disable-w32threads --enable-runtime-cpudetect --enable-avisynth --enable-bzlib --enable-frei0r --enable-libopencore-amrnb --enable-libopencore-amrwb --enable-libfreetype --enable-libgsm --enable-libmp3lame --enable-libopenjpeg --enable-librtmp --enable-libschroedinger --enable-libspeex --enable-libtheora --enable-libvo-aacenc --enable-libvo-amrwbenc --enable-libvorbis --enable-libvpx --enable-libx264 --enable-libxavs --enable-libxvid --enable-zlib
libavutil 51. 34.100 / 51. 34.100
libavcodec 53. 53.100 / 53. 53.100
libavformat 53. 29.100 / 53. 29.100
libavdevice 53. 4.100 / 53. 4.100
libavfilter 2. 57.101 / 2. 57.101
libswscale 2. 1.100 / 2. 1.100
libswresample 0. 5.100 / 0. 5.100
libpostproc 51. 2.100 / 51. 2.100
[dshow @ 02A51A60] Estimating duration from bitrate, this may be inaccurate
Input #0, dshow, from 'video=Video WebCam:audio=Micrófono (Realtek High Definit':
Duration: N/A, start: 13425.342000, bitrate: N/A
Stream #0:0: Video: rawvideo (YUY2 / 0x32595559), yuyv422, 320x240, 25 tbr, 10000k tbn, 10000k tbc
Stream #0:1: Audio: pcm_s16le, 44100 Hz, 2 channels, s16, 1411 kb/s
Unrecognized option 'container_format'
Failed to set value 'avi' for option 'container_format'


Posts IndexRead Thread
Reply   Like  
Share on Facebook


Current Message Thread:




LOGIN TO REPLY



FORUMSTUTORIALSFEATURESVIDEOSPODCASTSEVENTSSERVICESNEWSLETTERNEWSBLOGS

Creative COW LinkedIn Group Creative COW Facebook Page Creative COW on Twitter
© 2014 CreativeCOW.net All rights are reserved. - Privacy Policy

[Top]